地球人討論區.Netme.cc

 找回密碼
 立即註冊
成為贊助會員助我們永續經營! 閱讀權限80+免回帖可選信用卡、PayMe、銀行、超商支付
搜索
熱搜: 活動 交友 discuz
查看: 128|回復: 5
收起左側

古宅 The.Lingering, 2018.[MKV / 7.28G] 粤语/中字

[複製鏈接]
發表於 2018-12-2 22:46:48 | 顯示全部樓層 |閱讀模式
成為贊助會員助我們永續經營! 閱讀權限80+免回帖

馬上註冊,享用更多功能,讓你輕鬆玩轉地球。

您需要 登錄 才可以下載或查看,沒有帳號?立即註冊

x
分類:        電影
題材:        驚悚 恐怖
地區:        中港台
語言:        中文字幕 粤语
格式:        MKV
年份:        2018


导演: 涂霆骏 / 麦浩邦
编剧: 黄子桓 / 郑栋
主演: 朱茵 / 张继聪 / 张彦博 / 邹文正 / 李枫 / 更多...
类型: 惊悚 / 恐怖
制片国家/地区: 香港
语言: 粤语
上映日期: 2018-09-25(中国大陆) / 2018-10-04(香港)
片长: 85分钟
又名: 山村古宅 / The Lingering

剧情简介

  農曆除夕晚上,青衣帶著兒子大娃等著丈夫石子從萬里以外回來團聚,可惜等了一個晚上音訊全無,兒子更頻頻看到一個青衣看不見的叔叔。隔壁二嬸登門拜訪,青衣拜託二嬸暫時照顧大娃,自己則跑到村委會打電話到工廠了解丈夫下落,豈料得悉工廠發生意外,丈夫生死未卜。那邊廂二嬸在青衣家遇上怪事,急奔到村委會找青衣求救,卻把大娃獨留在家中。青衣馬上回家看到大娃安然無恙,心裏稍定下來,卻發現一陌生男人躲在家中暗角!青衣無路可逃,只能帶著大娃在家中四處躲避。到底這男人是人是鬼,來到青衣家又是所謂何事呢?

Video
ID : 1
Format : AVC
Format/Info : Advanced Video Codec
Format profile : High@L4.1
Format settings : CABAC / 5 Ref Frames
Format settings, CABAC : Yes
Format settings, ReFrames : 5 frames
Codec ID : V_MPEG4/ISO/AVC
Duration : 1 h 26 min
Bit rate : 11.4 Mb/s
Width : 1 920 pixels
Height : 804 pixels
Display aspect ratio : 2.40:1
Frame rate mode : Constant
Frame rate : 24.000 FPS
Color space : YUV
Chroma subsampling : 4:2:0
Bit depth : 8 bits
Scan type : Progressive
Bits/(Pixel*Frame) : 0.309
Stream size : 6.90 GiB (95%)
Writing library : x264 core 155 r2867+82 a249126 t_mod_Custom_2 [8-bit@all X86_64]
Encoding settings : cabac=1 / ref=5 / deblock=1:-3:-3 / analyse=0x3:0x133 / me=umh / subme=10 / psy=1 / fade_compensate=0.00 / psy_rd=1.05:0.00 / mixed_ref=1 / me_range=48 / chroma_me=1 / trellis=2 / 8x8dct=1 / cqm=0 / deadzone=21,11 / fast_pskip=0 / chroma_qp_offset=-2 / threads=24 / lookahead_threads=4 / sliced_threads=0 / nr=0 / decimate=0 / interlaced=0 / bluray_compat=0 / constrained_intra=0 / fgo=0 / bframes=7 / b_pyramid=2 / b_adapt=2 / b_bias=0 / direct=3 / weightb=1 / open_gop=0 / weightp=2 / keyint=250 / keyint_min=24 / scenecut=40 / intra_refresh=0 / rc_lookahead=60 / rc=crf / mbtree=0 / crf=16.4000 / qcomp=0.60 / qpmin=0:0:0 / qpmax=69:69:69 / qpstep=4 / vbv_maxrate=62500 / vbv_bufsize=78125 / crf_max=0.0 / nal_hrd=none / filler=0 / ip_ratio=1.30 / pb_ratio=1.20 / aq=3:0.90 / aq-sensitivity=10.00 / aq-factor=1.00:1.00:1.00 / aq2=0 / aq3=0 / zones=48,287,crf=15/6468,6696,crf=14.5
Default : Yes
Forced : No

Audio
ID : 2
Format : AC-3
Format/Info : Audio Coding 3
Commercial name : Dolby Digital
Codec ID : A_AC3
Duration : 1 h 26 min
Bit rate mode : Constant
Bit rate : 640 kb/s
Channel(s) : 6 channels
Channel layout : L R C LFE Ls Rs
Sampling rate : 48.0 kHz
Frame rate : 31.250 FPS (1536 SPF)
Bit depth : 16 bits
Compression mode : Lossy
Stream size : 395 MiB (5%)
Title : Cantonese
Language : Chinese
Service kind : Complete Main
Default : Yes
Forced : No

Text #1
ID : 3
Format : UTF-8
Codec ID : S_TEXT/UTF8
Codec ID/Info : UTF-8 Plain Text
Duration : 1 h 21 min
Bit rate : 31 b/s
Count of elements : 734
Stream size : 18.6 KiB (0%)
Language : English
Default : Yes
Forced : Yes

Text #2
ID : 4
Format : UTF-8
Codec ID : S_TEXT/UTF8
Codec ID/Info : UTF-8 Plain Text
Duration : 1 h 21 min
Bit rate : 26 b/s
Count of elements : 749
Stream size : 15.8 KiB (0%)
Title : CHS
Language : Chinese
Default : No
Forced : No

Text #3
ID : 5
Format : UTF-8
Codec ID : S_TEXT/UTF8
Codec ID/Info : UTF-8 Plain Text
Duration : 1 h 21 min
Bit rate : 26 b/s
Count of elements : 749
Stream size : 15.8 KiB (0%)
Title : CHT
Language : Chinese
Default : No
Forced : No

Menu
00:00:00.000 : en:00:00:00.000
00:07:19.250 : en:00:07:19.250
00:12:12.708 : en:00:12:12.708
00:17:42.208 : en:00:17:42.208
00:29:08.917 : en:00:29:08.917
00:37:08.417 : en:00:37:08.417
00:41:28.083 : en:00:41:28.083
00:49:59.750 : en:00:49:59.750
00:57:11.250 : en:00:57:11.250
01:01:49.125 : en:01:01:49.125
01:11:43.750 : en:01:11:43.750
01:23:35.292 : en:01:23:35.292
094955poqdosdvoyniydtv.jpg

古宅 MKV.torrent

73.95 KB, 下載次數: 33, 下載積分: 金錢 -1 $

回復

使用道具 舉報

發表於 2018-12-3 09:52:58 | 顯示全部樓層
Thank for sharing
回復

使用道具 舉報

發表於 2018-12-3 21:38:31 | 顯示全部樓層
Thanks man
回復

使用道具 舉報

發表於 2018-12-6 18:28:42 | 顯示全部樓層
Thanks for sharing
回復

使用道具 舉報

發表於 2018-12-6 21:28:36 | 顯示全部樓層
Thanks a lot, I like her............
回復

使用道具 舉報

發表於 7 天前 | 顯示全部樓層
thx...............................
回復

使用道具 舉報

您需要登錄後才可以回帖 登錄 | 立即註冊

本版積分規則

Archiver|地球人討論區.Netme.cc  

GMT+8, 2018-12-14 06:42 PM , Processed in 0.184283 second(s), 5 queries , File On.

Powered by Discuz! X3.3 Licensed

© 2001-2017 Comsenz Inc.

快速回復 返回頂部 返回列表